ГЛАВНАЯ СТРАНИЦА  ФОРУМ САЙТА


Информация для правообладателей

Форма входа
Логин
Пароль

МЕНЮ
КАТЕГОРИИ
Российские сериалы 2015 года [9]
Российские сериалы 2014 года [85]
Российские Сериалы 2013 года [337]
Зарубежное сериалы 2015 года [16]
Зарубежное сериалы 2014 года [88]
Зарубежные Сериалы 2013 года [257]
Российские сериалы [323]
Зарубежные сериалы [362]
Бразильские сериалы [3]
Сериалы Испании, Латинской Америки и Турции [17]
Азиатские сериалы [5]
Сериалы DVD 5 [18]
Российские сериалы DVD 5 - 2014 года [0]
Зарубежное сериалы DVD 5 - 2014 года [0]
Сериалы DVD 9 [29]
Российские сериалы DVD 9 - 2014 года [0]
Зарубежное сериалы DVD 9 - 2014 года [0]
Главная » Файлы » Сериалы » Сериалы DVD 5

Зона. Тюремный роман / Серии: 1-50 из 50 (2006, Драма, криминал, детектив) 4 x DVD5
12.09.2014, 22:13
 

Зона. Тюремный роман
pic

 

Год выпуска: 2006
Производство: Монолит
Жанр: Драма, криминал, детектив
Продолжительность: 2203 мин (50 х ~ 00:44:04 )
Субтитры: Отсутствуют
Режиссёр: Петр Штейн
 

В ролях: Александр Тараньжин, Олег Протасов, Игорь Карташе, Игорь Филиппов, Луиза Мосендз, Адам Чекман, Андрей Филиппак, Сергей Моложае, Вадим Медведев, Олег Гераськин, Федор Малышев, Дмитрий Супонин, Александр Батрак, Виктор Коношенков, Алексей Агрызков, Лара Чаклин, Эдуард Федашко, Сергей Иванов, Ромуальд Вильдан, Николай Ковбас, Наталия Колодяжная, Даниил Грецов, Андрей Семенов, Руслан Кулешов, Владимир Перегудов, Роман Данилычев
 

Описание: Фильм основан на реальных шокирующих историях, записанных в зонах, тюрьмах и пересылочных пунктах страны. Жестокая сущность зоны с ее порядками, чудовищной иерархией, скрытыми преступлениями предстанет перед зрителями во всех подробностях и с максимальной степенью достоверности. Начало проекту дала рукопись, которую, минуя тюремную цензуру, передали на студию люди, находящиеся «по ту сторону решетки». К созданию сериала подключилась группа специальных сценаристов. Впервые в истории мирового кино и телевидения в проекте, помимо актеров, участвуют настоящие заключенные.
 

СЭМПЛ


Качество: DVD5
Формат: DVD-Video
Видео кодек: MPEG2
Аудио кодек: AC3
Видео: PAL 4:3 (352x288) 25,000 кадров/сек, 3148 Кбит/сек, VBR
Аудио: Russian (Dolby AC3, 2 ch)128 Кбит/сек

DVD-Info
 
Title: 01-12
Size: 4.05 Gb ( 4 248 654,00 KBytes ) - DVD-5
Enabled regions: 1, 2, 3, 4, 5, 6, 7, 8
VTS_01 :
Play Length: 00:44:44+00:44:43+00:44:47+00:44:40+00:44:40+00:44:41+00:44:42+00:44:40+00:44:16+00:44:04+00:44:05+00:44:04
Video: PAL 4:3 (352x288) VBR
Audio:
Russian (Dolby AC3, 2 ch)
Title: 13-24
Size: 4.02 Gb ( 4 217 472,00 KBytes ) - DVD-5
Enabled regions: 1, 2, 3, 4, 5, 6, 7, 8
VTS_01 :
Play Length: 00:43:35+00:44:05+00:44:09+00:44:08+00:44:05+00:44:05+00:44:06+00:44:06+00:44:05+00:44:06+00:44:08+00:44:06
Video: PAL 4:3 (352x576) VBR
Audio:
Not specified (MPEG1, 2 ch)
Title: 25-36
Size: 4.30 Gb ( 4 509 568,00 KBytes ) - DVD-5
Enabled regions: 1, 2, 3, 4, 5, 6, 7, 8
VTS_01 :
Play Length: 00:44:05+00:44:05+00:44:05+00:44:05+00:44:06+00:44:06+00:44:08+00:44:08+00:44:08+00:44:08+00:44:08+00:44:08
Video: PAL 4:3 (352x288) VBR
Audio:
Russian (Dolby AC3, 2 ch)
Title: 37-50
Size: 3.92 Gb ( 4 111 582,00 KBytes ) - DVD-5
Enabled regions: 1, 2, 3, 4, 5, 6, 7, 8
VTS_01 :
Play Length: 00:44:08+00:44:08+00:44:08+00:44:08+00:43:29+00:43:29+00:43:29+00:43:29+00:43:30+00:44:08+00:44:08+00:44:08+00:44:08+00:44:08
Video: PAL 4:3 (352x288) VBR
Audio:
Russian (Dolby AC3, 2 ch)
 
 
MediaInfo
 
Общее
Полное имя : D:\Не удалять\Видео\DVD\Zona.Turemnyi.Roman.2006.DVD5\01-12\VIDEO_TS\VTS_01_1.VOB
Формат : MPEG-PS
Размер файла : 1023 Мбайт
Продолжительность : 42 м.
Режим общего битрейта : Переменный
Общий поток : 3342 Кбит/сек
Библиотека кодирования : | HC 0.16 beta - (c) 2004/2005 |
Видео
Идентификатор : 224 (0xE0)
Формат : MPEG Video
Версия формата : Version 2
Профиль формата : Main@Main
Параметр BVOP формата : Да
Параметр матрицы формата : Выборочная
Параметр GOP формата : Variable
Продолжительность : 42 м.
Вид битрейта : Переменный
Битрейт : 3148 Кбит/сек
Максимальный битрейт : 8000 Кбит/сек
Ширина : 352 пикселя
Высота : 288 пикселей
Соотношение сторон : 4:3
Частота кадров : 25,000 кадров/сек
Стандарт вещания : PAL
Цветовое пространство : YUV
Субдискретизация насыщенности : 4:2:0
Битовая глубина : 8 бит
Тип развёртки : Прогрессивная
Метод сжатия : С потерями
Бит/(Пиксели*Кадры) : 1.242
TimeCode_FirstFrame : 00:00:00:00
TimeCode_Source : Group of pictures header
Размер потока : 963 Мбайт (94%)
Библиотека кодирования : | HC 0.16 beta - (c) 2004/2005 |
Аудио
Идентификатор : 189 (0xBD)-128 (0x80)
Формат : AC-3
Формат/Информация : Audio Coding 3
Расширение режима : CM (complete main)
Параметр Endianness формата : Big
Режим смешивания : DVD-Video
Продолжительность : 42 м.
Вид битрейта : Постоянный
Битрейт : 128 Кбит/сек
Каналы : 2 канала
Расположение каналов : Front: L R
Частота : 48,0 КГц
Битовая глубина : 16 бит
Метод сжатия : С потерями
Размер потока : 39,2 Мбайт (4%)
Меню
 

pic pic pic pic pic pic pic pic

 




Зона. Тюремный роман / Серии: 1-50 из 50 (2006, Драма, криминал, детектив) 4 x DVD5.torrent
Как тут качать? · Как добавить материал?
Трекер: [ 12.09.2014 · 22:13 ]

Скачать

16.3 GB

Статус: проверено
Скачан: 51 раз
Размер: 16.3 GB
Оценка: 0.0 (Голосов: 0)
Спасибо:



Категория: Сериалы DVD 5 | Добавил: ZED_X | Теги: детектив), Зона., (2006, роман, драма, DVD5, криминал, Серии:, Тюремный, 1-50
Просмотров: 546 | Загрузок: 51 | Рейтинг: 0.0/0

Похожие материалы по тегам

Всего комментариев: 0
Добавлять комментарии могут только зарегистрированные пользователи.
[ Регистрация | Вход ]
СТАТИСТИКА




Яндекс цитирования.



Онлайн всего: 1
Гостей: 1
Пользователей: 0


Copyright MyCorp © 2022 Сделать бесплатный сайт с uCoz