ГЛАВНАЯ СТРАНИЦА  ФОРУМ САЙТА


Информация для правообладателей

Форма входа
Логин
Пароль

МЕНЮ
КАТЕГОРИИ
Зарубежное кино 2015 года [130]
Зарубежное кино 2014 года [556]
Зарубежное кино 2013 года [644]
Наше кино 2015 года [9]
Наше кино 2014 года [75]
Наше кино 2013 года [96]
Зарубежное кино [1958]
Наше кино [231]
Арт-хаус и авторское кино [11]
Театр [5]
3D/Стерео Кино, Видео и TV [37]
Отечественный Рок (Видео) [24]
Зарубежный Rock (Видео) [29]
Музыка (Видео) [255]
Вера и религия [1]
Документальные фильмы и телепередачи [281]
Спортивные турниры, фильмы и передачи [15]
Временные раздачи, Экранки, CamRip и т.д. [95]
В гостях у сказки [27]
+18, Взрослое Кино [187]
Азиатское кино [170]
Азиатское кино 2015 года [1]
Индийское кино [49]
Индийское кино 2015 года [2]
Классика Советского Кино [112]
Классика Зарубежного Кино [156]
На родном языке [8]
Трейлеры, Анонсы, Дополнения... [85]
Галилео [15]
Среда Обитания [18]
Контрольная закупка [0]
Discovery [22]
National Geographic [38]
Компьютерные видеоуроки и обучающие интерактивные DVD [8]
Сборники и Фильмографии [17]
Главная » Файлы » Кино, Видео и ТВ » Музыка (Видео)

Rammstein - Video Collection (2013, Industrial) DVD-9
17.01.2014, 09:09

Оригинальное наименование: Rammstein - Video Collection
Категория: Industrial
Год выпуска: 2013
Краткое описание: Видеоклипы группы 1995-2012 годов.
Треклист:
01. Du Riechst So Gut
02. Rammstein
03. Seemann
04. Du Hast
05. Du Riechst So Gut'98
06. Engel
07. Stripped
08. Feuer Frei
09. Ich Will
10. Links 2 3 4
11. Mutter
12. Sonne
13. Amerika
14. Keine Lust
15. Mein Teil
16. Ohne Dich
17. Benzin
18. Mann Gegen Mann
19. Rosenrot
20. Haifisch
21. Ich Tu Dir Weh
22. Pussy
23. Mein Land
24. Mein Herz Brennt (Piano Version)
25. Mein Herz Brennt

Качество: DVD-9
Видео данные: MPEG2 / 720*576 (16:9) / PAL / 6599 (8200) kbps / 25.0 fps
Аудио данные: PCM / 1536 kbps / 48.0 khz / 2 ch
Продолжительность: 01:47:56
DVDinfo
Title: Rammstein - Video Collection
Size: 6.43 Gb ( 6 743 138,00 KBytes ) - DVD-9
Enabled regions: 1, 2, 3, 4, 5, 6, 7, 8

VTS_01 :
Play Length: 01:47:56
Video: PAL 16:9 (720x576) VBR, Auto Letterboxed
Audio:
English (LinearPCM, 2 ch)

* Menus Information *

VIDEO_TS Menu
Video:
PAL 16:9 (720x576) VBR
Auto Letterboxed
Audio:
Not specified (Dolby AC3, 2 ch)
Language Unit :

VTS_01 Menu
Video:
PAL 16:9 (720x576) VBR
Auto Letterboxed
Audio:
English (Dolby AC3, 2 ch)
Language Unit :
Root Menu
MI
Общее
Полное имя : D:\Video\Rammstein - Video Collection\VIDEO_TS\VTS_01_1.VOB
Формат : MPEG-PS
Размер файла : 1024 Мбайт
Продолжительность : 17 м.
Режим общего битрейта : Переменный
Общий поток : 8301 Кбит/сек
Библиотека кодирования : (c) 1998-2012 Womble Multimedia, Inc. / MPEG Video Wizard DVD 5.0.1.100 (03/2011) / Sep 22 2012

Видео
Идентификатор : 224 (0xE0)
Формат : MPEG Video
Версия формата : Version 2
Профиль формата : Main@Main
Параметр BVOP формата : Да
Параметр матрицы формата : По умолчанию
Параметр GOP формата : M=3, N=12
Продолжительность : 17 м.
Вид битрейта : Переменный
Битрейт : 6599 Кбит/сек
Максимальный битрейт : 8200 Кбит/сек
Ширина : 720 пикселей
Высота : 576 пикселей
Соотношение сторон : 16:9
Частота кадров : 25,000 кадров/сек
Стандарт вещания : PAL
Цветовое пространство : YUV
Субдискретизация насыщенности : 4:2:0
Битовая глубина : 8 бит
Тип развёртки : Прогрессивная
Метод сжатия : С потерями
Бит/(Пиксели*Кадры) : 0.637
Временной код первого кадра : 00:00:00:00
Оригинал временного кода : Group of pictures header
Размер потока : 814 Мбайт (80%)
Библиотека кодирования : (c) 1998-2012 Womble Multimedia, Inc. / MPEG Video Wizard DVD 5.0.1.100 (03/2011) / Sep 22 2012

Аудио
Идентификатор : 189 (0xBD)-160 (0xA0)
Формат : PCM
Параметр Endianness формата : Big
Параметр Sign формата : Signed
Режим смешивания : DVD-Video
Продолжительность : 17 м.
Вид битрейта : Постоянный
Битрейт : 1536 Кбит/сек
Каналы : 2 канала
Частота : 48,0 КГц
Битовая глубина : 16 бит
Задержка видео : -80 мс.
Размер потока : 189 Мбайт (19%)

Меню
Скриншоты меню




Коврик


Rammstein - Video Collection (2013) DVD-9Rammstein - Video Collection (2013) DVD-9Rammstein - Video Collection (2013) DVD-9




Rammstein - Video Collection (2013, Industrial) DVD-9.torrent
Как тут качать? · Как добавить материал?
Трекер: [ 17.01.2014 · 09:09 ]

Скачать

6.43 GB

Статус: проверено
Скачан: 38 раз
Размер: 6.43 GB
Оценка: 0.0 (Голосов: 0)
Спасибо:



Категория: Музыка (Видео) | Добавил: eXod | Теги: Video, Collection, (2013, DVD-9, Rammstein, Industrial)
Просмотров: 391 | Загрузок: 38 | Рейтинг: 0.0/0

Похожие материалы по тегам

Всего комментариев: 0
Добавлять комментарии могут только зарегистрированные пользователи.
[ Регистрация | Вход ]
СТАТИСТИКА




Яндекс цитирования.



Онлайн всего: 1
Гостей: 1
Пользователей: 0


Copyright MyCorp © 2023 Сделать бесплатный сайт с uCoz